Chat

eLearning Books

Getting Started with Dreamweaver CS5 and Business Catalyst Pages : - Edition : 0 - Type : video

(0 downloads)

Getting Started with Dreamweaver CS5 and Business Catalyst (unknown)

Shared by le kaka on 2014-10-12

Getting Started with Dreamweaver CS5 and Business Catalyst MOV | AVC 100kbps | English | 960x540 | 15fps | 2h 06mins | AAC mono 96kbps | 275 MB Genre: Video Training In Getting Started with Dreamweaver CS5 and Business Catalyst, author Joseph Lowery introduces Business Catalyst, the hosted application for building and managing business web sites, and shows how to add complex functionality by leveraging its integration with Dreamweaver CS5. The course includes tutorials on setting up a Business Catalyst site in Dreamweaver, adding and customizing design elements such as blogs and forums, and employing the Business Catalyst ecommerce features to build an online store. Exercise files accompany the course. Topics include: Exploring the capabilities of Business Catalyst Modifying Business Catalyst modules and templates in Dreamweaver Extending to clients the ability to modify their web pages in the browser Managing downloadable documents with the Literature module Utilizing Business Catalyst's customer and content management features Creating email marketing campaigns Building a store catalog Setting up a payment gateway Customizing the checkout experience 0. Introduction Welcome 01:36 Using the exercise files 00:54 1. Introducing Business Catalyst What is Business Catalyst? 03:50 Why Business Catalyst matters to Dreamweaver designers 03:14 What Business Catalyst costs 04:28 Understanding the Business Catalyst partnership 05:10 Adobe and Business Catalyst integration 02:04 2. Integrating Business Catalyst with Dreamweaver Installing the Business Catalyst extension 01:44 Setting up a Business Catalyst site in Dreamweaver 02:44 Basic file management 01:59 Creating Business Catalyst templates 03:41 Defining a default template 01:48 Inserting Business Catalyst modules 03:46 Customizing module tags 06:48 Styling module output 03:31 3. Using InContext Editing Establishing editable Dreamweaver pages 03:51 Enabling InContext Editing for clients 07:39 4. Advanced Business Catalyst Features Setting up a custom site 06:02 Integrating templates 02:54 Building a web form 05:01 Inserting a blog 04:13 Handling downloadable documents 03:59 Creating announcements 03:37 Setting up an email campaign 07:26 5. Building an Online Store with Business Catalyst Creating a catalog 06:01 Adding products 08:24 Styling detail pages 06:32 Establishing a payment gateway 03:05 Defining the checkout experience 02:28 Enabling discounts 03:23 Upselling and cross selling 04:25 6. Conclusion What's Next 00:14 Mediainfo: Format : QuickTime Format/Info : Original Apple specifications File size : 5.65 MiB Duration : 3mn 41s Overall bit rate mode : Variable Overall bit rate : 214 Kbps Encoded date : UTC 2010-12-13 23:50:36 Tagged date : UTC 2010-12-13 23:50:36 Writing library : Apple QuickTime Copyright : lynda.com Video #1 ID : 1 Format : AVC Format/Info : Advanced Video Codec Format profile : Main@L3.1 Format settings, CABAC : Yes Format settings, ReFrames : 3 frames Codec ID : avc1 Codec ID/Info : Advanced Video Coding Duration : 3mn 41s Source duration : 3mn 41s Bit rate : 100 Kbps Width : 960 pixels Height : 540 pixels Display aspect ratio : 16:9 Frame rate mode : Constant Frame rate : 15.000 fps Standard : Component Color space : YUV Chroma subsampling : 4:2:0 Bit depth : 8 bits Scan type : Progressive Bits/(Pixel*Frame) : 0.013 Stream size : 2.65 MiB (47%) Source stream size : 3.04 MiB (54%) Language : English Encoded date : UTC 2010-12-13 23:50:36 Tagged date : UTC 2010-12-13 23:50:36 Color primaries : BT.601 NTSC Transfer characteristics : BT.709 Matrix coefficients : BT.601 mdhd_Duration : 221933 Audio #2 ID : 2 Format : AAC Format/Info : Advanced Audio Codec Format profile : LC Codec ID : 40 Duration : 3mn 41s Bit rate mode : Variable Bit rate : 96.0 Kbps Maximum bit rate : 129 Kbps Channel(s) : 1 channel Channel positions : Front: C Sampling rate : 48.0 KHz Compression mode : Lossy Stream size : 2.53 MiB (45%) Language : English Encoded date : UTC 2010-12-13 23:50:36 Tagged date : UTC 2010-12-13 23:50:36

tags  Tags:  Dreamweaver 

Vote (0)

Report Link

icon_top

Contact us through a traditional message

*Please input your name.
*Please input your email. *Your email is wrong format.
*Please input message.